<
 
Статистика раздачи
Скачали: [ 6 ]
Размер:  2.06 GB   |    Зарегистрирован:  6 месяцев 6 дней   |    Скачан:  7 раз
Сидов:  0 (+33)  [  0 KB/s  ]   Личеров:  0 (+2)  [  0 KB/s  ]   Подробная статистика пиров
 
   
 
 
 
Автор Сообщение

Мария ®

Пол:

Стаж: 2 года

Сообщений: 5501

Откуда: Заволжский район.

Торрент-статистика

MediaInfo

Чудо-женщинаWonder Woman«Справедливость наступит вместе с ней»Год выпуска: 2017
Страна: США
Жанр: фантастика, фэнтези, боевик, приключения

Продолжительность: 02:10:35
Перевод: Профессиональный (полное дублирование) [Звук TS] Очищенный!
Субтитры: Корейские (неотключаемые)-Примечание: Рекламы нет!За дорожку особое спасибо DENZEL519!-Режиссёр
Пэтти Дженкинс
Patty Jenkins
В ролях: Галь Гадот (Wonder Woman), Робин Райт (General Antiope), Дэвид Тьюлис (Sir Patrick), Конни Нильсен (Queen Hippolyta), Крис Пайн (Steve Trevor), Елена Анайя (Maru / Doctor Poison), Люси Дэвис (Etta Candy), Юэн Бремнер (Charlie), Даутцен Крёз (Venelia), Дэнни Хьюстон (General Erich Ludendorff), Нг Мэйлин (Orana), Элинор Мацуура (Epione)
-Описание: Перед тем как стать Чудо-Женщиной, она была Дианой - принцессой амазонок, обученной быть непобедимой воительницей. И когда на берегах ограждённого от внешнего мира райского острова, который служил ей родиной, терпит крушение американский пилот и рассказывает о серьёзном конфликте, бушующем во внешнем мире, Диана покидает свой дом, чтобы справиться с этой угрозой. И там, сражаясь бок о бок с человеком в войне за мир, Диана обнаружит всю полноту своей власти... и своё истинное предназначение.--Качество: TC-AVC
Контейнер: MKV
Видео кодек: MPEG-4 AVC
Аудио кодек: AC3
Видео: AVC, 1040x472 (2.2:1), 1900 kbps, 23,976 fps, 0,161 bpp
Аудио №1: Русский / AC3 / 2.0 / 48 kHz / 192 kbps / 16 bit
Аудио №2: Английский / AC3 / 2.0 / 44 kHz / 192 kbps / 16 bit
Рип:
7.063 (25 336) 8.20 (91 644)
[img]http://i95.fastpic.ru/big/2017/0612/2f/a1c9d1c6d7e183f3461172da7e5cba2f.png" border="0" style="max-width:200px;max-height:120px;" align="" onLoad="imgSize($(this).attr('src'));" onmouseover="imgSize($(this).attr('src'));" />
Media Info

MediaInfo

General
Unique ID : 254940388615713809797445408248773519920 (0xBFCBBB9BDA451285AA34E1D5AB20AA30)
Complete name : E:\Wonder.Woman.2017.TC-AVC.and7720.mkv
Format : Matroska
Format version : Version 4 / Version 2
File size : 2.06 GiB
Duration : 2h 10mn
Overall bit rate : 2 260 Kbps
Encoded date : UTC 2017-06-12 14:01:18
Writing application : mkvmerge v9.8.0 ('Kuglblids') 64bit
Writing library : libebml v1.3.4 + libmatroska v1.4.5
Video
ID : 1
Format : AVC
Format/Info : Advanced Video Codec
Format profile : [email protected]
Format settings, CABAC : No
Format settings, ReFrames : 5 frames
Codec ID : V_MPEG4/ISO/AVC
Duration : 2h 10mn
Bit rate : 1 900 Kbps
Width : 1 040 pixels
Height : 472 pixels
Display aspect ratio : 2.2:1
Frame rate : 23.976 fps
Color space : YUV
Chroma subsampling : 4:2:0
Bit depth : 8 bits
Scan type : Progressive
Bits/(Pixel*Frame) : 0.161
Stream size : 1.67 GiB (81%)
Writing library : x264 core 148 r2721M 72d53ab
Encoding settings : cabac=0 / ref=5 / deblock=0:-6:-6 / analyse=0x3:0 / me=umh / subme=9 / psy=1 / psy_rd=1.00:0.00 / mixed_ref=0 / me_range=16 / chroma_me=1 / trellis=0 / 8x8dct=1 / cqm=0 / deadzone=21,11 / fast_pskip=1 / chroma_qp_offset=-2 / threads=4 / lookahead_threads=1 / sliced_threads=0 / nr=0 / decimate=1 / interlaced=0 / bluray_compat=0 / constrained_intra=0 / bframes=5 / b_pyramid=2 / b_adapt=0 / b_bias=0 / direct=1 / weightb=0 / open_gop=0 / weightp=0 / keyint=230 / keyint_min=23 / scenecut=0 / intra_refresh=0 / rc=abr / mbtree=0 / bitrate=1900 / ratetol=1.0 / qcomp=0.60 / qpmin=0 / qpmax=69 / qpstep=4 / ip_ratio=1.40 / pb_ratio=1.30 / aq=0
Language : English
Default : Yes
Forced : No
DURATION : 02:08:32.544000000
NUMBER_OF_FRAMES : 184916
NUMBER_OF_BYTES : 1838585468
_STATISTICS_WRITING_APP : mkvmerge v9.8.0 ('Kuglblids') 64bit
_STATISTICS_WRITING_DATE_UTC : 2017-06-12 14:01:18
_STATISTICS_TAGS : BPS DURATION NUMBER_OF_FRAMES NUMBER_OF_BYTES
Audio #1
ID : 2
Format : AC-3
Format/Info : Audio Coding 3
Mode extension : CM (complete main)
Codec ID : A_AC3
Duration : 2h 10mn
Bit rate mode : Constant
Bit rate : 192 Kbps
Channel(s) : 2 channels
Channel positions : Front: L R
Sampling rate : 48.0 KHz
Bit depth : 16 bits
Compression mode : Lossy
Delay relative to video : 1ms
Stream size : 179 MiB (8%)
Language : Russian
Default : Yes
Forced : No
DURATION : 02:10:35.904000000
NUMBER_OF_FRAMES : 244872
NUMBER_OF_BYTES : 188061696
_STATISTICS_WRITING_APP : mkvmerge v9.8.0 ('Kuglblids') 64bit
_STATISTICS_WRITING_DATE_UTC : 2017-06-12 14:01:18
_STATISTICS_TAGS : BPS DURATION NUMBER_OF_FRAMES NUMBER_OF_BYTES
Audio #2
ID : 3
Format : AC-3
Format/Info : Audio Coding 3
Mode extension : CM (complete main)
Codec ID : A_AC3
Duration : 2h 10mn
Bit rate mode : Constant
Bit rate : 192 Kbps
Channel(s) : 2 channels
Channel positions : Front: L R
Sampling rate : 44.1 KHz
Bit depth : 16 bits
Compression mode : Lossy
Stream size : 179 MiB (8%)
Language : English
Default : No
Forced : No
DURATION : 02:08:32.566000000
NUMBER_OF_FRAMES : 221435
NUMBER_OF_BYTES : 185101582
_STATISTICS_WRITING_APP : mkvmerge v9.8.0 ('Kuglblids') 64bit
_STATISTICS_WRITING_DATE_UTC : 2017-06-12 14:01:18
_STATISTICS_TAGS : BPS DURATION NUMBER_OF_FRAMES NUMBER_OF_BYTES




[centershare.net].t159229.torrent
Торрент: Зарегистрирован   [ 2017-06-12 18:02 ]

Скачать torrent

------------------------------

11 KB

Статус: T временная
Скачан: Скачаны:
Размер: 2.06 GB
Оценка:  4.7 (Голосов: 3)
Поблагодарили: 4  Спасибо   (список)
:
 
[Профиль] [ЛС]
Показать сообщения:    

Текущее время: Сегодня 22:13

Часовой пояс: GMT + 2



Вы не можете начинать темы
Вы не можете отвечать на сообщения
Вы не можете редактировать свои сообщения
Вы не можете удалять свои сообщения
Вы не можете голосовать в опросах
Вы не можете прикреплять файлы к сообщениям
Вы можете скачивать файлы




покупка трафика на сайт